ACGCOOL

绅士资源聚合站点

[纪录片分享] BBC: Extinction Rebellion Last Chance to Save the World [720p][WEB-DL][x264][AAC][email protected]

《[纪录片分享] BBC: Extinction Rebellion Last Chance to Save the World [720p][WEB-DL][x264][AAC]-@251》

(C) BBC

介绍

2019 has marked a change in public attitudes to climate change driven in part by a huge new global protest movement.

In this timely and powerful documentary, reporter Ben Zand gains access to the most important of the protest groups, Extinction Rebellion. He is with them for four months as they build towards “the rebellion” – 11 days of protest in April during which they take over and occupy four iconic locations in London. 

The film follows three young people who have been inspired to join and lead the protests. Many are not only protesting for the first time in their lives but are also putting their liberty on the line to demand radical action from the government. We are there as they organise street protests and direct actions – risking arrest for their commitment to the cause.

16-year-old Dani from south London has never been on a protest before – since joining Extinction Rebellion in 2018, she has co-organised nationwide school strikes. Sam is 22 and a recent graduate, but now works full-time for Extinction Rebellion and is willing to get arrested again and again until something changes. Jack joined the movement recently at age 18. He is inspired by the tactics and research laid out by Extinction Rebellion and has an eye on organising controversial splinter actions for the movement.

Ben also spends time with the leader of the movement, Roger Hallam, who has spent years academically researching tactics for social change. He says you need 2000 people to get arrested and 400 people to go to prison if you want the government to meet your demands. Ben challenges him on his methods and asks whether it is justifiable to encourage young people to break the law.

This film is the first to get inside the new climate movements. It reveals how they have mobilised a generation to take radical action to help save the planet from climate change.

Mediainfo

General
Complete name                  : BBC.Extinctio[email protected]251.mkv
Format                         : Matroska
Format version                 : Version 4
File size                      : 3.17 GiB
Duration                       : 44 min 6 s
Overall bit rate               : 10.3 Mb/s
Movie name                     : Extinction Rebellion: Last Chance to Save the World
Encoded date                   : UTC 2019-12-15 11:33:35
Writing application            : mkvmerge v41.0.0 ('Smarra') 64-bit
Writing library                : libebml v1.3.9 + libmatroska v1.5.2
Cover                          : Yes
Attachments                    : cover.jpg

Video #1
ID                             : 1
Format                         : AVC
Format/Info                    : Advanced Video Codec
Format profile                 : [email protected]
Format settings                : CABAC / 4 Ref Frames
Format settings, CABAC         : Yes
Format settings, Reference fra : 4 frames
Codec ID                       : V_MPEG4/ISO/AVC
Duration                       : 44 min 6 s
Bit rate                       : 5 015 kb/s
Width                          : 1 280 pixels
Height                         : 720 pixels
Display aspect ratio           : 16:9
Frame rate mode                : Constant
Frame rate                     : 50.000 FPS
Color space                    : YUV
Chroma subsampling             : 4:2:0
Bit depth                      : 8 bits
Scan type                      : Progressive
Bits/(Pixel*Frame)             : 0.109
Stream size                    : 1.54 GiB (49%)
Title                          : Original
Language                       : English
Default                        : Yes
Forced                         : Yes
Color range                    : Limited
Color primaries                : BT.709
Transfer characteristics       : BT.709
Matrix coefficients            : BT.709

Video #2
ID                             : 3
Format                         : AVC
Format/Info                    : Advanced Video Codec
Format profile                 : [email protected]
Format settings                : CABAC / 4 Ref Frames
Format settings, CABAC         : Yes
Format settings, Reference fra : 4 frames
Codec ID                       : V_MPEG4/ISO/AVC
Duration                       : 44 min 6 s
Bit rate                       : 5 041 kb/s
Width                          : 1 280 pixels
Height                         : 720 pixels
Display aspect ratio           : 16:9
Frame rate mode                : Constant
Frame rate                     : 50.000 FPS
Color space                    : YUV
Chroma subsampling             : 4:2:0
Bit depth                      : 8 bits
Scan type                      : Progressive
Bits/(Pixel*Frame)             : 0.109
Stream size                    : 1.55 GiB (49%)
Title                          : Signed
Language                       : English
Default                        : No
Forced                         : No
Color range                    : Limited
Color primaries                : BT.709
Transfer characteristics       : BT.709
Matrix coefficients            : BT.709

Audio #1
ID                             : 2
Format                         : AAC LC
Format/Info                    : Advanced Audio Codec Low Complexity
Codec ID                       : A_AAC-2
Duration                       : 44 min 6 s
Bit rate                       : 128 kb/s
Channel(s)                     : 2 channels
Channel layout                 : L R
Sampling rate                  : 48.0 kHz
Frame rate                     : 46.875 FPS (1024 SPF)
Compression mode               : Lossy
Delay relative to video        : -20 ms
Stream size                    : 40.4 MiB (1%)
Title                          : Original
Language                       : English
Default                        : Yes
Forced                         : Yes

Audio #2
ID                             : 4
Format                         : AAC LC SBR
Format/Info                    : Advanced Audio Codec Low Complexity with Spectral Band Replication
Commercial name                : HE-AAC
Format settings                : Implicit
Codec ID                       : A_AAC-2
Duration                       : 44 min 6 s
Bit rate                       : 96.0 kb/s
Channel(s)                     : 2 channels
Channel layout                 : L R
Sampling rate                  : 48.0 kHz
Frame rate                     : 23.438 FPS (2048 SPF)
Compression mode               : Lossy
Delay relative to video        : -20 ms
Stream size                    : 30.3 MiB (1%)
Title                          : Audiodescribed
Language                       : English
Default                        : No
Forced                         : No

Text
ID                             : 5
Format                         : UTF-8
Codec ID                       : S_TEXT/UTF8
Codec ID/Info                  : UTF-8 Plain Text
Duration                       : 44 min 0 s
Bit rate                       : 234 b/s
Count of elements              : 836
Stream size                    : 75.6 KiB (0%)
Title                          : Subtitle
Language                       : English
Default                        : Yes
Forced                         : Yes

资源预览

《[纪录片分享] BBC: Extinction Rebellion Last Chance to Save the World [720p][WEB-DL][x264][AAC]-@251》

关于我们

我们目前专注于发布 BBC 各类电视节目和纪录片,以及无损专辑。目前在绅士仓库首发资源。

有任何求片/求专辑/建议/问询请在评论区提出,谢谢!

本资源过期不补,请及时保存;
BBC: Extinction Rebellion Last Chance to Save the World
190617
@251
3.17 GiB

食用说明:绅士仓库是一个致力于优秀ACG资源的整理发布平台,搜集整理各类音乐,萌图,动漫等二次元资源。除特别标注外,默认解压密码:cangku.moe 或 cangku.in 或 galacg.me

文章来自《[纪录片分享] BBC: Extinction Rebellion Last Chance to Save the World [720p][WEB-DL][x264][AAC][email protected]》,作者:251(猫C) aka 电酱!。版权归原作者所有。

点赞

发表评论

电子邮件地址不会被公开。 必填项已用*标注