ACGCOOL

绅士资源聚合站点

[动画分享] 文豪ストレイドッグス DEAD APPLE (文豪野犬 DEAD APPLE) [1集全+CD+特典][BDRip 1920×1080 x264 Hi8P]

《[动画分享] 文豪ストレイドッグス DEAD APPLE (文豪野犬 DEAD APPLE) [1集全+CD+特典][BDRip 1920×1080 x264 Hi8P]》

《[动画分享] 文豪ストレイドッグス DEAD APPLE (文豪野犬 DEAD APPLE) [1集全+CD+特典][BDRip 1920×1080 x264 Hi8P]》

《[动画分享] 文豪ストレイドッグス DEAD APPLE (文豪野犬 DEAD APPLE) [1集全+CD+特典][BDRip 1920×1080 x264 Hi8P]》

《[动画分享] 文豪ストレイドッグス DEAD APPLE (文豪野犬 DEAD APPLE) [1集全+CD+特典][BDRip 1920×1080 x264 Hi8P]》

 

简介:
一切的开始都是在6年前。
各个组织都被卷入、刮起腥风血雨的那88天的“龙头抗争”,是横浜里社会史中堆起的尸山最多的一段期间。
与港头黑帮的盟友·中原中也一同闯过了这条死线的太宰治,心怀着死去的“友人”的话语,与黑帮头领·森鸥外诀别了。
他在新的地方找到了自己的“生”,是在那2年之后的事了。
 
在福泽谕吉的理念下创设的武装侦探社,迎接了新社员:中岛敦与泉镜花,就这样过着骚乱且平稳的日常。
但是,世界各国的异能力者们相继自杀的怪奇事件发生了。
500人以上的自杀了的异能力者,居然都是被自己的能力所杀死的。
而且发生事件的地点,都有着不可理解的“雾”缭绕着。
内务省异能特务课将这一连续事件命名为「异能力者连续自杀事件」。
接到坂口安吾的委托的武装侦探社,前去捕获被怀疑与这一系列事件有牵扯的一位男人。
那个男人,名为涩泽龙彦。被称为“收集家”的一位浑身都是谜团的异能力者。
怀着什么鬼胎潜伏于横浜的涩泽,同时,暗地活跃于各个事件的魔人·费奥多尔的身影也出没在了横浜……。
横浜的街道,即将会被可怕的噩梦所吞噬。
 
别名: 文豪ストレイドッグス デッドアップル
话数: 1
原作: 朝霧カフカ・春河35「文豪ストレイドッグス」(ヤングエース / KADOKAWA)、可児里未
导演: 五十嵐卓哉
脚本: 榎戸洋司
音乐: 岩崎琢
人物设定: 新井伸浩
美术监督: 近藤由美子
色彩设计: 後藤ゆかり
总作画监督: 新井伸浩
作画监督: 服部聡志、飯山菜保子、橋本敬史、高士亞衣、菅野宏紀、徳岡紘平、下條祐未、荻野美希
机械设定: 片貝文洋
摄影监督: 神林剛
道具设计: 金田尚美
原画: 飯山菜保子、服部聡志、高士亞衣、永作友克、石野聡、下條祐未、西島翔平、町田真一、徳岡紘平、高嶋宏之、中重俊祐、梅津泰臣、木下ゆうき、本間晃、宇佐美萌、菅野宏紀、川元利浩、武本大介、荻野美希、工藤糸織、大友健一、柿田英樹、村木靖、たないあやこ、長野伸明、岩井優器、林央剛
第二原画: 福岡英典、アクタス、Wish、飯山菜保子、金田尚美、可児里未、荻野美希、新井伸浩
背景美术: 草薙
剪辑: 西山茂
主题歌编曲: 飯塚昌明
主题歌作曲: 飯塚昌明
主题歌作词: 谷山紀章
主题歌演出: GRANRODEO、ラックライフ
插入歌演出: SCREEN mode
企画: 工藤大丈、菊池剛
录音: 佐竹徹也
音响监督: 若林和弘
音响: グロービジョン
音效: 長谷川卓也、倉橋静男
特效: 古市裕一、イノイエシン
补间动画: Production I.G、KINEMA CITRUS、ライデンフィルム、アクタス、プロダクションアイムズ、Wish、SILVER LINK.、feel.
制片人: 倉兼千晶
音乐制作: ランティス
友情協力: 朝霧カフカ
动画制作: BONES
OP・ED 分镜: 依田伸隆
上映年度: 2018年3月3日
官方网站: http://bungo-stray-dogs.jp/
Copyright: © 2018 朝霧カフカ・春河35/KADOKAWA/文豪ストレイドッグス製作委員会
脚本协力: 朝霧カフカ
美术监督辅佐: 熊野はつみ(KUSANAGI)
配给: 角川ANIMATION
製作: 文豪ストレイドッグスDA製作委員会
 
提示:已包含简中字幕
文件为分卷压缩形式上传,解压时需所有压缩包一起解压。解压后总大小10GB。
 

媒体信息:
General
Unique ID                      : 209024809399587009543976693646141794565 (0x9D40B6C5B4AA3D4B94D18EC92C65A905)
Complete name                  : H:资源二次元动漫文豪ストレイドッグス (文豪野犬) 系列文豪ストレイドッグス DEAD APPLE (文豪野犬 DEAD APPLE) [BDRip 1920×1080 x264 Hi8P][Bungou Stray Dogs Dead Apple][BDRIP][1920×1080][H264_FLACx2].mkv
Format                         : Matroska
Format version                 : Version 4 / Version 2
File size                      : 7.97 GiB
Duration                       : 1 h 30 min
Overall bit rate mode          : Variable
Overall bit rate               : 12.6 Mb/s
Encoded date                   : UTC 2019-01-12 21:30:29
Writing application            : mkvmerge v7.7.0 ('Six Voices') 32bit built on Feb 28 2015 23:23:00
Writing library                : libebml v1.3.1 + libmatroska v1.4.2
Video
ID                             : 1
Format                         : AVC
Format/Info                    : Advanced Video Codec
Format profile                 : [email protected]
Format settings                : CABAC / 4 Ref Frames
Format settings, CABAC         : Yes
Format settings, ReFrames      : 4 frames
Codec ID                       : V_MPEG4/ISO/AVC
Duration                       : 1 h 30 min
Bit rate                       : 10.2 Mb/s
Nominal bit rate               : 11.2 Mb/s
Width                          : 1 920 pixels
Height                         : 1 080 pixels
Display aspect ratio           : 16:9
Frame rate mode                : Constant
Frame rate                     : 23.976 (24000/1001) FPS
Color space                    : YUV
Chroma subsampling             : 4:2:0
Bit depth                      : 8 bits
Scan type                      : Progressive
Bits/(Pixel*Frame)             : 0.206
Stream size                    : 6.46 GiB (81%)
Writing library                : x264 core 125 r2200 999b753
Encoding settings              : cabac=1 / ref=4 / deblock=1:-1:-1 / analyse=0x3:0x113 / me=umh / subme=9 / psy=1 / psy_rd=1.00:0.00 / mixed_ref=1 / me_range=24 / chroma_me=1 / trellis=2 / 8x8dct=1 / cqm=0 / deadzone=21,11 / fast_pskip=1 / chroma_qp_offset=-2 / threads=18 / lookahead_threads=3 / sliced_threads=0 / nr=0 / decimate=1 / interlaced=0 / bluray_compat=0 / constrained_intra=0 / bframes=3 / b_pyramid=0 / b_adapt=2 / b_bias=0 / direct=3 / weightb=1 / open_gop=0 / weightp=2 / keyint=240 / keyint_min=23 / scenecut=40 / intra_refresh=0 / rc_lookahead=50 / rc=2pass / mbtree=1 / bitrate=11200 / ratetol=1.0 / qcomp=0.60 / qpmin=10 / qpmax=51 / qpstep=4 / cplxblur=20.0 / qblur=0.5 / vbv_maxrate=50000 / vbv_bufsize=50000 / nal_hrd=none / ip_ratio=1.40 / aq=1:1.00
Default                        : Yes
Forced                         : No
Audio #1
ID                             : 2
Format                         : FLAC
Format/Info                    : Free Lossless Audio Codec
Codec ID                       : A_FLAC
Duration                       : 1 h 30 min
Bit rate mode                  : Variable
Bit rate                       : 717 kb/s
Channel(s)                     : 2 channels
Channel positions              : Front: L R
Sampling rate                  : 48.0 kHz
Frame rate                     : 11.719 FPS (4096 SPF)
Bit depth                      : 16 bits
Stream size                    : 463 MiB (6%)
Title                          : FLAC 2.0
Writing library                : libFLAC 1.2.1 (UTC 2007-09-17)
Language                       : Japanese
Default                        : Yes
Forced                         : No
Audio #2
ID                             : 3
Format                         : FLAC
Format/Info                    : Free Lossless Audio Codec
Codec ID                       : A_FLAC
Duration                       : 1 h 30 min
Bit rate mode                  : Variable
Bit rate                       : 1 679 kb/s
Channel(s)                     : 6 channels
Channel positions              : Front: L C R, Side: L R, LFE
Sampling rate                  : 48.0 kHz
Frame rate                     : 11.719 FPS (4096 SPF)
Bit depth                      : 16 bits
Stream size                    : 1.06 GiB (13%)
Title                          : FLAC 5.1
Writing library                : libFLAC 1.2.1 (UTC 2007-09-17)
Language                       : Japanese
Default                        : No
Forced                         : No
Menu
00:00:00.000                   : en:Avant
00:05:09.976                   : en:Opening
00:08:39.728                   : en:Main 01
00:16:29.155                   : en:Main 02
00:25:29.069                   : en:Main 03
00:33:45.482                   : en:Main 04
00:41:27.735                   : en:Main 05
00:54:15.878                   : en:Main 06
01:04:31.785                   : en:Main 07
01:16:17.531                   : en:Main 08
01:26:43.865                   : en:Ending

 

三篇压缩上传是真的难受。

OneDrive
2019-07-12
提取:待上传,完成后更新
百度云
2019-07-12
提取:Yhoo

食用说明:绅士仓库是一个致力于优秀ACG资源的整理发布平台,搜集整理各类音乐,萌图,动漫等二次元资源。除特别标注外,默认解压密码:cangku.moe 或 cangku.in 或 galacg.me

文章来自《[动画分享] 文豪ストレイドッグス DEAD APPLE (文豪野犬 DEAD APPLE) [1集全+CD+特典][BDRip 1920×1080 x264 Hi8P]》,作者:鹿乃。版权归原作者所有。

点赞

发表评论

电子邮件地址不会被公开。 必填项已用*标注