ACGCOOL

绅士资源聚合站点

[动画分享] 文豪ストレイドッグス 第2シーズン (文豪野犬 第二季) [12集全+1ODA+6SP+CD+特典][BDRip 1920×1080 x264 Hi8P]

《[动画分享] 文豪ストレイドッグス 第2シーズン (文豪野犬 第二季) [12集全+1ODA+6SP+CD+特典][BDRip 1920×1080 x264 Hi8P]》

《[动画分享] 文豪ストレイドッグス 第2シーズン (文豪野犬 第二季) [12集全+1ODA+6SP+CD+特典][BDRip 1920×1080 x264 Hi8P]》

《[动画分享] 文豪ストレイドッグス 第2シーズン (文豪野犬 第二季) [12集全+1ODA+6SP+CD+特典][BDRip 1920×1080 x264 Hi8P]》

《[动画分享] 文豪ストレイドッグス 第2シーズン (文豪野犬 第二季) [12集全+1ODA+6SP+CD+特典][BDRip 1920×1080 x264 Hi8P]》

 

简介:
被赶出孤儿院,濒临饿死的青年·中岛敦所遇到的奇怪男人们——。
光天化日之下忙于跳水自杀,有着自杀嗜好的男人·太宰治。
神经质地翻看着笔记本的眼镜男·国木田独步。
他们,是传闻中将那些军队和警察无法介入的事件解决的“武装侦探社”的职员。
敦在鬼使神差之下被他们要求一同前去惩治扰乱街市的“食人虎”……。
架空的都市·横滨。登场者是,拥有文豪之名的人们。与这些名字相称的异形之力,迸发出火花。
千奇百怪的文豪异能力战斗,就此开幕!
 
别名: 文豪ストレイドッグス 2期
话数: 12
放送开始: 2016年10月5日
放送星期: 星期五
原作: 朝霧カフカ・春河35「文豪ストレイドッグス」(ヤングエース / KADOKAWA)
导演: 五十嵐卓哉
脚本: 榎戸洋司
分镜: 内海紘子、浅井義之、五十嵐卓哉、山本秀世
演出: 佐藤育郎、池下博紀、浅井義之
音乐: 岩崎琢
人物设定: 新井伸浩
系列构成: 榎戸洋司
美术监督: 近藤由美子
色彩设计: 後藤ゆかり
总作画监督: 新井伸浩、菅野宏紀
作画监督: 菅野宏紀、徳岡紘平、出雲誉明、伊藤嘉之、服部聡志
摄影监督: 神林剛
道具设计: ヒラタリョウ
原画: 冨岡寛、林隆祥
剪辑: 西山茂
主题歌编曲: ラックライフ、太田雅友
主题歌作曲: 太田雅友
主题歌作词: 松井洋平
主题歌演出: SCREEN mode / ラックライフ
企画: 菊池剛、工藤大丈
音响监督: 若林和弘
音响: グロービジョン
制片人: 倉兼千晶、田村淳一郎
音乐制作: ランティス
动画制作: BONES
CG 导演: 太田光希
OP・ED 分镜: 梅津泰臣、タムラコータロー
官方网站: http://bungo-stray-dogs.jp/
播放电视台: TOKYO MX
其他电视台: WOWOWプライム / サンテレビ / TVQ九州放送 / チバテレビ / tvk / テレ玉 / 岐阜放送 / 三重テレビ放送 / BS11 / ニコニコ生放送
播放结束: 2016年12月16日
Copyright: ©2016 朝霧カフカ・春川35/KADOKAWA/文豪ストレイドッグス製作委員会
 
提示:已包含简中字幕
文件为分卷压缩形式上传,解压时需所有压缩包一起解压。解压后总大小30.9GB。
 

媒体信息:
General
Unique ID                      : 209123765807912711390233552055291197894 (0x9D53C5B32CE1241996C29205D4E9B9C6)
Complete name                  : H:资源二次元动漫文豪ストレイドッグス (文豪野犬) 系列文豪ストレイドッグス 第2シーズン (文豪野犬 第二季) [BDRip 1920×1080 x264 Hi8P][Bungou Stray Dogs][13][BDRIP][1080P][H264_FLAC].mkv
Format                         : Matroska
Format version                 : Version 4 / Version 2
File size                      : 1.22 GiB
Duration                       : 24 min 12 s
Overall bit rate mode          : Variable
Overall bit rate               : 7 227 kb/s
Encoded date                   : UTC 2017-10-15 17:45:49
Writing application            : mkvmerge v7.7.0 ('Six Voices') 32bit built on Feb 28 2015 23:23:00
Writing library                : libebml v1.3.1 + libmatroska v1.4.2
Video
ID                             : 1
Format                         : AVC
Format/Info                    : Advanced Video Codec
Format profile                 : [email protected]
Format settings                : CABAC / 4 Ref Frames
Format settings, CABAC         : Yes
Format settings, ReFrames      : 4 frames
Codec ID                       : V_MPEG4/ISO/AVC
Duration                       : 24 min 12 s
Bit rate                       : 6 600 kb/s
Width                          : 1 920 pixels
Height                         : 1 080 pixels
Display aspect ratio           : 16:9
Frame rate mode                : Constant
Frame rate                     : 23.976 (24000/1001) FPS
Color space                    : YUV
Chroma subsampling             : 4:2:0
Bit depth                      : 8 bits
Scan type                      : Progressive
Bits/(Pixel*Frame)             : 0.133
Stream size                    : 1.12 GiB (91%)
Writing library                : x264 core 125 r2200 999b753
Encoding settings              : cabac=1 / ref=4 / deblock=1:-1:-1 / analyse=0x3:0x113 / me=umh / subme=9 / psy=1 / psy_rd=1.00:0.00 / mixed_ref=1 / me_range=24 / chroma_me=1 / trellis=2 / 8x8dct=1 / cqm=0 / deadzone=21,11 / fast_pskip=1 / chroma_qp_offset=-2 / threads=18 / lookahead_threads=3 / sliced_threads=0 / nr=0 / decimate=1 / interlaced=0 / bluray_compat=0 / constrained_intra=0 / bframes=3 / b_pyramid=0 / b_adapt=2 / b_bias=0 / direct=3 / weightb=1 / open_gop=0 / weightp=2 / keyint=240 / keyint_min=23 / scenecut=40 / intra_refresh=0 / rc_lookahead=50 / rc=2pass / mbtree=1 / bitrate=6600 / ratetol=1.0 / qcomp=0.60 / qpmin=10 / qpmax=51 / qpstep=4 / cplxblur=20.0 / qblur=0.5 / vbv_maxrate=50000 / vbv_bufsize=50000 / nal_hrd=none / ip_ratio=1.40 / aq=1:1.00
Default                        : Yes
Forced                         : No
Audio
ID                             : 2
Format                         : FLAC
Format/Info                    : Free Lossless Audio Codec
Codec ID                       : A_FLAC
Duration                       : 24 min 12 s
Bit rate mode                  : Variable
Bit rate                       : 627 kb/s
Channel(s)                     : 2 channels
Channel positions              : Front: L R
Sampling rate                  : 48.0 kHz
Frame rate                     : 11.719 FPS (4096 SPF)
Bit depth                      : 16 bits
Stream size                    : 109 MiB (9%)
Title                          : FLAC 2.0
Writing library                : libFLAC 1.2.1 (UTC 2007-09-17)
Language                       : Japanese
Default                        : Yes
Forced                         : No
Menu
00:00:00.000                   : en:A Part
00:12:57.986                   : en:B Part
00:22:22.091                   : en:Ending
00:23:41.003                   : en:Yokoku
OneDrive
2019-07-12
提取:待上传,完成后更新
百度云
2019-07-12
提取:Yhoo

食用说明:绅士仓库是一个致力于优秀ACG资源的整理发布平台,搜集整理各类音乐,萌图,动漫等二次元资源。除特别标注外,默认解压密码:cangku.moe 或 cangku.in 或 galacg.me

文章来自《[动画分享] 文豪ストレイドッグス 第2シーズン (文豪野犬 第二季) [12集全+1ODA+6SP+CD+特典][BDRip 1920×1080 x264 Hi8P]》,作者:鹿乃。版权归原作者所有。

点赞
  1. ZABXL说道:

    UP主,能改成迅雷磁力链接吗?太慢了,速度高达100KB/s

发表评论

电子邮件地址不会被公开。 必填项已用*标注